osu file format v14

[General]
AudioFilename: unfinished.mp3
AudioLeadIn: 1500
PreviewTime: 41278
Countdown: 0
SampleSet: None
StackLeniency: 0.7
Mode: 3
LetterboxInBreaks: 0
WidescreenStoryboard: 1

[Editor]
DistanceSpacing: 0.8
BeatDivisor: 4
GridSize: 32
TimelineZoom: 1.3

[Metadata]
Title:Anime OP/ED Fantasy
TitleUnicode:Anime OP/ED Fantasy
Artist:Various Artist
ArtistUnicode:Various Artist
Creator:bima fajar
Version:Unfinished [4k NM]
Source:
Tags:log horizon log horizon 2 bleach 11eyes black bullet C3 shikyubu romeo x juliet naruto attack on titan chaos dragon sekiryuu sen'eki accel world mahouka koukou no rettousei
BeatmapID:828906
BeatmapSetID:378584

[Difficulty]
HPDrainRate:6
CircleSize:4
OverallDifficulty:7
ApproachRate:5
SliderMultiplier:1.4
SliderTickRate:1

[Events]
//Background and Video events
0,0,"Accel World.jpg",0,0
//Break Periods
//Storyboard Layer 0 (Background)
//Storyboard Layer 1 (Fail)
//Storyboard Layer 2 (Pass)
//Storyboard Layer 3 (Foreground)
//Storyboard Sound Samples

[TimingPoints]
438,410.958904109589,4,2,0,100,1,0

[HitObjects]
64,192,643,1,0,0:0:0:0:
192,192,951,1,0,0:0:0:0:
320,192,951,1,0,0:0:0:0:
448,192,1259,1,0,0:0:0:0:
192,192,1670,1,0,0:0:0:0:
320,192,1670,1,0,0:0:0:0:
320,192,2081,1,0,0:0:0:0:
192,192,2492,1,0,0:0:0:0:
320,192,2492,1,0,0:0:0:0:
320,192,2903,1,0,0:0:0:0:
192,192,3314,1,0,0:0:0:0:
320,192,3314,1,0,0:0:0:0:
448,192,3828,1,0,0:0:0:0:
320,192,4033,1,0,0:0:0:0:
192,192,4239,1,0,0:0:0:0:
320,192,4650,1,0,0:0:0:0:
64,192,4958,1,0,0:0:0:0:
320,192,5061,1,0,0:0:0:0:
320,192,5369,1,0,0:0:0:0:
192,192,5780,1,0,0:0:0:0:
448,192,5780,1,0,0:0:0:0:
320,192,6191,1,0,0:0:0:0:
192,192,6602,1,0,0:0:0:0:
448,192,6602,1,0,0:0:0:0:
448,192,6910,1,0,0:0:0:0:
320,192,7013,1,0,0:0:0:0:
192,192,7218,1,0,0:0:0:0:
64,192,7321,1,0,0:0:0:0:
192,192,7424,1,0,0:0:0:0:
320,192,7527,1,0,0:0:0:0:
448,192,7937,1,0,0:0:0:0:
320,192,8348,128,0,8657:0:0:0:0:
192,192,8657,128,0,9170:0:0:0:0:
448,192,9170,1,0,0:0:0:0:
64,192,9581,1,0,0:0:0:0:
320,192,9890,1,0,0:0:0:0:
192,192,10198,1,0,0:0:0:0:
448,192,10506,1,0,0:0:0:0:
320,192,10711,1,0,0:0:0:0:
320,192,11020,1,0,0:0:0:0:
192,192,11328,1,0,0:0:0:0:
448,192,11636,1,0,0:0:0:0:
320,192,11944,1,0,0:0:0:0:
192,192,12253,1,0,0:0:0:0:
64,192,12458,1,0,0:0:0:0:
192,192,12664,1,0,0:0:0:0:
320,192,12869,1,0,0:0:0:0:
448,192,13074,1,0,0:0:0:0:
320,192,13177,1,0,0:0:0:0:
192,192,13485,1,0,0:0:0:0:
64,192,13588,1,0,0:0:0:0:
192,192,13794,1,0,0:0:0:0:
320,192,13999,1,0,0:0:0:0:
192,192,14205,1,0,0:0:0:0:
448,192,14410,1,0,0:0:0:0:
320,192,14616,1,0,0:0:0:0:
192,192,14821,1,0,0:0:0:0:
64,192,15027,1,0,0:0:0:0:
320,192,15232,1,0,0:0:0:0:
192,192,15438,1,0,0:0:0:0:
320,192,15643,1,0,0:0:0:0:
320,192,16876,1,0,0:0:0:0:
192,192,17287,1,0,0:0:0:0:
448,192,17287,1,0,0:0:0:0:
320,192,17698,1,0,0:0:0:0:
64,192,18109,1,0,0:0:0:0:
320,192,18109,1,0,0:0:0:0:
320,192,18520,1,0,0:0:0:0:
192,192,18931,1,0,0:0:0:0:
448,192,18931,1,0,0:0:0:0:
320,192,19855,1,0,0:0:0:0:
448,192,19855,1,0,0:0:0:0:
64,192,20061,1,0,0:0:0:0:
192,192,20061,1,0,0:0:0:0:
448,192,20164,1,0,0:0:0:0:
320,192,20164,1,0,0:0:0:0:
192,192,20266,1,0,0:0:0:0:
64,192,20266,1,0,0:0:0:0:
448,192,20266,1,0,0:0:0:0:
320,192,20266,1,0,0:0:0:0:
448,192,20574,1,0,0:0:0:0:
320,192,20780,1,0,0:0:0:0:
192,192,21088,1,0,0:0:0:0:
64,192,21294,1,0,0:0:0:0:
192,192,21499,1,0,0:0:0:0:
320,192,21807,1,0,0:0:0:0:
192,192,22116,1,0,0:0:0:0:
320,192,22116,1,0,0:0:0:0:
192,192,22321,1,0,0:0:0:0:
320,192,22321,1,0,0:0:0:0:
448,192,22527,1,0,0:0:0:0:
320,192,22732,1,0,0:0:0:0:
192,192,23040,1,0,0:0:0:0:
64,192,23246,1,0,0:0:0:0:
320,192,23451,1,0,0:0:0:0:
192,192,23554,1,0,0:0:0:0:
448,192,23862,1,0,0:0:0:0:
320,192,24273,1,0,0:0:0:0:
192,192,24581,128,0,24890:0:0:0:0:
448,192,24890,1,0,0:0:0:0:
64,192,25198,1,0,0:0:0:0:
320,192,25403,1,0,0:0:0:0:
192,192,25609,1,0,0:0:0:0:
448,192,25711,1,0,0:0:0:0:
320,192,25917,1,0,0:0:0:0:
192,192,26020,1,0,0:0:0:0:
448,192,26122,1,0,0:0:0:0:
320,192,26225,1,0,0:0:0:0:
192,192,26328,1,0,0:0:0:0:
64,192,26431,1,0,0:0:0:0:
320,192,26636,1,0,0:0:0:0:
64,192,26739,1,0,0:0:0:0:
192,192,26842,1,0,0:0:0:0:
320,192,27047,1,0,0:0:0:0:
192,192,27150,1,0,0:0:0:0:
448,192,27355,1,0,0:0:0:0:
320,192,27561,1,0,0:0:0:0:
192,192,27766,1,0,0:0:0:0:
448,192,27869,1,0,0:0:0:0:
320,192,28074,1,0,0:0:0:0:
192,192,28280,1,0,0:0:0:0:
320,192,28485,1,0,0:0:0:0:
64,192,28588,1,0,0:0:0:0:
320,192,28794,1,0,0:0:0:0:
192,192,28999,1,0,0:0:0:0:
448,192,29205,1,0,0:0:0:0:
320,192,29307,1,0,0:0:0:0:
192,192,29616,1,0,0:0:0:0:
320,192,29821,1,0,0:0:0:0:
320,192,30129,1,0,0:0:0:0:
192,192,30129,1,0,0:0:0:0:
192,192,30232,1,0,0:0:0:0:
320,192,30232,1,0,0:0:0:0:
320,192,30437,1,0,0:0:0:0:
192,192,30540,1,0,0:0:0:0:
448,192,30746,1,0,0:0:0:0:
320,192,30951,1,0,0:0:0:0:
192,192,31157,1,0,0:0:0:0:
64,192,31465,1,0,0:0:0:0:
192,192,31670,1,0,0:0:0:0:
320,192,31876,1,0,0:0:0:0:
192,192,31979,1,0,0:0:0:0:
448,192,32184,1,0,0:0:0:0:
320,192,32287,1,0,0:0:0:0:
192,192,32492,1,0,0:0:0:0:
448,192,32595,1,0,0:0:0:0:
320,192,32698,1,0,0:0:0:0:
192,192,32903,1,0,0:0:0:0:
64,192,33109,1,0,0:0:0:0:
192,192,33314,1,0,0:0:0:0:
320,192,33520,1,0,0:0:0:0:
192,192,33622,1,0,0:0:0:0:
448,192,33828,1,0,0:0:0:0:
320,192,34033,1,0,0:0:0:0:
192,192,34239,1,0,0:0:0:0:
448,192,34342,1,0,0:0:0:0:
320,192,34547,1,0,0:0:0:0:
192,192,34753,1,0,0:0:0:0:
64,192,34855,1,0,0:0:0:0:
192,192,35061,1,0,0:0:0:0:
320,192,35266,1,0,0:0:0:0:
448,192,35472,1,0,0:0:0:0:
320,192,35677,1,0,0:0:0:0:
192,192,35780,1,0,0:0:0:0:
448,192,35985,1,0,0:0:0:0:
320,192,36088,1,0,0:0:0:0:
192,192,36294,1,0,0:0:0:0:
64,192,36499,1,0,0:0:0:0:
192,192,36705,1,0,0:0:0:0:
320,192,36910,1,0,0:0:0:0:
192,192,37116,1,0,0:0:0:0:
192,192,37424,1,0,0:0:0:0:
320,192,37424,1,0,0:0:0:0:
448,192,37732,1,0,0:0:0:0:
192,192,37732,1,0,0:0:0:0:
320,192,38040,1,0,0:0:0:0:
192,192,38143,1,0,0:0:0:0:
192,192,38348,1,0,0:0:0:0:
320,192,38348,1,0,0:0:0:0:
64,192,38554,1,0,0:0:0:0:
320,192,38554,1,0,0:0:0:0:
320,192,38759,1,0,0:0:0:0:
192,192,38759,1,0,0:0:0:0:
320,192,38965,1,0,0:0:0:0:
64,192,38965,1,0,0:0:0:0:
320,192,39170,1,0,0:0:0:0:
64,192,39170,1,0,0:0:0:0:
192,192,39376,1,0,0:0:0:0:
448,192,39376,1,0,0:0:0:0:
320,192,39581,1,0,0:0:0:0:
192,192,39581,1,0,0:0:0:0:
448,192,39787,1,0,0:0:0:0:
64,192,39787,1,0,0:0:0:0:
320,192,39890,1,0,0:0:0:0:
192,192,39890,1,0,0:0:0:0:
448,192,40095,1,0,0:0:0:0:
64,192,40095,1,0,0:0:0:0:
320,192,40198,1,0,0:0:0:0:
192,192,40301,1,0,0:0:0:0:
448,192,40403,1,0,0:0:0:0:
64,192,40609,1,0,0:0:0:0:
192,192,40814,1,0,0:0:0:0:
320,192,41020,1,0,0:0:0:0:
448,192,41225,1,0,0:0:0:0:
320,192,41328,1,0,0:0:0:0:
192,192,41431,1,0,0:0:0:0:
320,192,41739,1,0,0:0:0:0:
192,192,42047,1,0,0:0:0:0:
320,192,42047,1,0,0:0:0:0:
448,192,42355,1,0,0:0:0:0:
192,192,42766,1,0,0:0:0:0:
320,192,42766,1,0,0:0:0:0:
320,192,43280,1,0,0:0:0:0:
64,192,43691,1,0,0:0:0:0:
320,192,43691,1,0,0:0:0:0:
320,192,44102,1,0,0:0:0:0:
192,192,44410,1,0,0:0:0:0:
448,192,44410,1,0,0:0:0:0:
448,192,44924,1,0,0:0:0:0:
320,192,45129,1,0,0:0:0:0:
448,192,45129,1,0,0:0:0:0:
320,192,45335,1,0,0:0:0:0:
448,192,45335,1,0,0:0:0:0:
320,192,45746,1,0,0:0:0:0:
448,192,45746,1,0,0:0:0:0:
320,192,46157,1,0,0:0:0:0:
192,192,46157,1,0,0:0:0:0:
320,192,46465,1,0,0:0:0:0:
448,192,46773,1,0,0:0:0:0:
64,192,46773,1,0,0:0:0:0:
320,192,46979,1,0,0:0:0:0:
64,192,46979,1,0,0:0:0:0:
320,192,47184,1,0,0:0:0:0:
192,192,47184,1,0,0:0:0:0:
448,192,47390,1,0,0:0:0:0:
192,192,47492,1,0,0:0:0:0:
320,192,47595,1,0,0:0:0:0:
320,192,47801,1,0,0:0:0:0:
64,192,47903,1,0,0:0:0:0:
320,192,48006,1,0,0:0:0:0:
192,192,48006,1,0,0:0:0:0:
448,192,48211,1,0,0:0:0:0:
64,192,48211,1,0,0:0:0:0:
320,192,48417,1,0,0:0:0:0:
192,192,48417,1,0,0:0:0:0:
320,192,48622,1,0,0:0:0:0:
192,192,48622,1,0,0:0:0:0:
320,192,49033,1,0,0:0:0:0:
192,192,49342,1,0,0:0:0:0:
320,192,49444,1,0,0:0:0:0:
320,192,49753,1,0,0:0:0:0:
64,192,50164,1,0,0:0:0:0:
320,192,50164,1,0,0:0:0:0:
320,192,50574,1,0,0:0:0:0:
320,192,50985,1,0,0:0:0:0:
192,192,51088,1,0,0:0:0:0:
320,192,51396,1,0,0:0:0:0:
192,192,51807,1,0,0:0:0:0:
448,192,51807,1,0,0:0:0:0:
320,192,52116,1,0,0:0:0:0:
192,192,52116,1,0,0:0:0:0:
192,192,52424,1,0,0:0:0:0:
320,192,52424,1,0,0:0:0:0:
448,192,52732,1,0,0:0:0:0:
64,192,52732,1,0,0:0:0:0:
320,192,52937,1,0,0:0:0:0:
64,192,52937,1,0,0:0:0:0:
320,192,53143,1,0,0:0:0:0:
192,192,53143,1,0,0:0:0:0:
448,192,53348,1,0,0:0:0:0:
64,192,53348,1,0,0:0:0:0:
320,192,53554,1,0,0:0:0:0:
64,192,53554,1,0,0:0:0:0:
192,192,53759,1,0,0:0:0:0:
320,192,53759,1,0,0:0:0:0:
64,192,53965,1,0,0:0:0:0:
448,192,53965,1,0,0:0:0:0:
320,192,54170,1,0,0:0:0:0:
64,192,54273,1,0,0:0:0:0:
320,192,54376,1,0,0:0:0:0:
320,192,54581,1,0,0:0:0:0:
320,192,54787,1,0,0:0:0:0:
64,192,54787,1,0,0:0:0:0:
64,192,54992,1,0,0:0:0:0:
320,192,54992,1,0,0:0:0:0:
448,192,55198,1,0,0:0:0:0:
448,192,55609,1,0,0:0:0:0:
192,192,55917,1,0,0:0:0:0:
448,192,55917,1,0,0:0:0:0:
320,192,56328,1,0,0:0:0:0:
64,192,56739,1,0,0:0:0:0:
320,192,56739,1,0,0:0:0:0:
320,192,57150,1,0,0:0:0:0:
448,192,57561,1,0,0:0:0:0:
192,192,57561,1,0,0:0:0:0:
448,192,58074,1,0,0:0:0:0:
320,192,58280,1,0,0:0:0:0:
320,192,58485,1,0,0:0:0:0:
192,192,58896,1,0,0:0:0:0:
320,192,59307,1,0,0:0:0:0:
192,192,59307,1,0,0:0:0:0:
320,192,59718,1,0,0:0:0:0:
448,192,59924,1,0,0:0:0:0:
320,192,60129,1,0,0:0:0:0:
192,192,60335,1,0,0:0:0:0:
64,192,60540,1,0,0:0:0:0:
192,192,60746,1,0,0:0:0:0:
320,192,60951,1,0,0:0:0:0:
448,192,61157,1,0,0:0:0:0:
320,192,61362,1,0,0:0:0:0:
192,192,61568,1,0,0:0:0:0:
448,192,61773,1,0,0:0:0:0:
320,192,62184,1,0,0:0:0:0:
320,192,62287,1,0,0:0:0:0:
192,192,62595,1,0,0:0:0:0:
320,192,63006,1,0,0:0:0:0:
320,192,63109,1,0,0:0:0:0:
64,192,63417,1,0,0:0:0:0:
320,192,63828,1,0,0:0:0:0:
320,192,63931,1,0,0:0:0:0:
192,192,64239,1,0,0:0:0:0:
448,192,64547,1,0,0:0:0:0:
320,192,64753,1,0,0:0:0:0:
192,192,65061,1,0,0:0:0:0:
320,192,65266,1,0,0:0:0:0:
64,192,65574,1,0,0:0:0:0:
448,192,65883,1,0,0:0:0:0:
320,192,66088,1,0,0:0:0:0:
192,192,66294,1,0,0:0:0:0:
64,192,66499,1,0,0:0:0:0:
192,192,66705,1,0,0:0:0:0:
320,192,66910,1,0,0:0:0:0:
192,192,67116,1,0,0:0:0:0:
448,192,67321,1,0,0:0:0:0:
320,192,67424,1,0,0:0:0:0:
192,192,67629,1,0,0:0:0:0:
64,192,67835,1,0,0:0:0:0:
192,192,68040,1,0,0:0:0:0:
320,192,68143,1,0,0:0:0:0:
192,192,68348,1,0,0:0:0:0:
320,192,68554,1,0,0:0:0:0:
448,192,68862,1,0,0:0:0:0:
320,192,69068,1,0,0:0:0:0:
192,192,69273,1,0,0:0:0:0:
320,192,69479,1,0,0:0:0:0:
192,192,69684,1,0,0:0:0:0:
64,192,69890,1,0,0:0:0:0:
192,192,70095,1,0,0:0:0:0:
320,192,70403,1,0,0:0:0:0:
192,192,70506,1,0,0:0:0:0:
448,192,70711,1,0,0:0:0:0:
320,192,70814,1,0,0:0:0:0:
192,192,71020,1,0,0:0:0:0:
64,192,71225,1,0,0:0:0:0:
192,192,71431,1,0,0:0:0:0:
320,192,71636,1,0,0:0:0:0:
192,192,71842,1,0,0:0:0:0:
448,192,72047,1,0,0:0:0:0:
320,192,72253,1,0,0:0:0:0:
192,192,72355,1,0,0:0:0:0:
448,192,72561,1,0,0:0:0:0:
192,192,72766,1,0,0:0:0:0:
320,192,72766,1,0,0:0:0:0:
448,192,72972,1,0,0:0:0:0:
320,192,73074,1,0,0:0:0:0:
192,192,73177,1,0,0:0:0:0:
64,192,73280,1,0,0:0:0:0:
192,192,73383,1,0,0:0:0:0:
320,192,73485,1,0,0:0:0:0:
448,192,73588,1,0,0:0:0:0:
320,192,73588,128,0,78725:0:0:0:0:
192,192,73588,128,0,78725:0:0:0:0:
64,192,73588,128,0,78725:0:0:0:0:
